<?xml version="1.0" standalone="no"?>
<!DOCTYPE svg PUBLIC "-//W3C//DTD SVG 1.1//EN" "http://www.w3.org/Graphics/SVG/1.1/DTD/svg11.dtd" >
<svg xmlns="http://www.w3.org/2000/svg">
<metadata>Generated by IcoMoon</metadata>
<defs>
<font id="icons1" horiz-adv-x="1024">
<font-face units-per-em="1024" ascent="960" descent="-64" />
<missing-glyph horiz-adv-x="1024" />
<glyph unicode="&#x20;" horiz-adv-x="512" d="" />
<glyph unicode="&#xe900;" glyph-name="np_small-island_1471144_FFFFFF" d="M814.397 556.8c-17.601 9.6-35.2 16-54.4 17.601l174.397 16c-32 32-76.8 49.601-126.403 44.8-25.6-3.2-48-11.201-67.2-22.4 12.8 20.799 22.4 44.8 25.6 70.4 4.8 48-12.8 94.401-44.8 126.403l-16-161.597c-3.2 17.601-8 36.801-17.601 52.799-24.001 43.201-64 70.4-108.8 78.399l91.199-163.205c-19.2 9.6-41.6 12.8-64 12.8-41.6-3.2-78.399-24.001-100.801-54.4l160 9.6c-132.803-118.395-172.8-320-182.395-388.803-8 0-14.399 0-22.4-1.6-8 57.6-39.999 216.003-143.995 312.003l123.197-8c-19.2 25.6-48 43.201-81.601 44.8-19.2 1.6-36.801-3.2-52.799-9.6l73.6 132.803c-35.2-6.4-68.801-28.8-88.001-64-8-14.399-12.8-28.8-14.399-43.201l-12.8 131.195c-25.6-25.6-39.999-62.401-36.801-102.4 1.6-20.799 9.6-41.6 20.799-57.6-16 9.6-35.2 16-54.4 19.2-39.999 3.2-76.8-11.201-102.4-36.801l140.8-14.399c-14.399-1.6-30.401-6.4-44.8-14.399-35.2-19.2-56.001-51.2-64-88.001l132.803 73.6c-6.4-16-11.201-33.599-9.6-51.2 1.6-33.599 19.2-64 44.8-81.601l-8 134.4c91.199-84.799 120.003-228.803 128-281.6-91.199-14.399-169.595-51.2-227.205-102.4h636.805c-70.4 62.401-174.397 103.997-291.205 108.8 11.201 68.801 48 248.003 164.803 352l-9.6-172.8c30.401 22.4 52.799 59.199 54.4 100.801 1.6 22.4-3.2 44.8-11.201 64l164.803-91.199c-9.6 44.8-36.801 84.799-78.399 108.8z" />
<glyph unicode="&#xe901;" glyph-name="np_list_124119_FFFFFF" d="M155.638 711.158c0-36.2-29.32-65.52-65.52-65.52s-65.56 29.32-65.56 65.52c0 36.2 29.36 65.56 65.56 65.56s65.52-29.36 65.52-65.56zM233.482 752.118h762.88v-80.88h-762.88zM155.638 444.918c0-36.2-29.32-65.52-65.52-65.52s-65.56 29.32-65.56 65.52c0 36.2 29.36 65.56 65.56 65.56s65.52-29.36 65.52-65.56zM233.482 485.878h762.88v-80.88h-762.88zM155.638 178.678c0-36.2-29.32-65.52-65.52-65.52s-65.56 29.32-65.56 65.52c0 36.2 29.36 65.56 65.56 65.56s65.52-29.36 65.52-65.56zM233.482 219.638h762.88v-80.88h-762.88z" />
<glyph unicode="&#xe902;" glyph-name="np_expensive_3967578_FFFFFF" d="M775.158 257.516l-87.040 67.6v83.96c0 4.080-4.080 8.2-8.2 8.2h-40.96c-4.080 0-8.2-4.080-8.2-8.2v-38.92l-91.12 70.64c-16.4 12.28-38.92 12.28-55.28 0l-235.52-183.276c-8.2-6.16-12.28-15.36-12.28-25.6v-12.28c0-10.24 8.2-19.44 19.44-19.44h46.080v-208.876c0-17.4 14.32-30.72 30.72-30.72h120.842v157.676c0 10.24 8.2 19.44 19.44 19.44h76.8c10.24 0 19.44-8.2 19.44-19.44v-156.682h120.842c17.4 0 30.72 14.32 30.72 30.72v208.876h47.12c10.24 0 19.44 8.2 19.44 19.44v12.32c0 9.2-4.080 18.44-12.28 24.56zM789.524 934.4h-555.039c-26.64 0-49.16-21.52-49.16-49.16v-254.956c0-26.64 21.52-49.16 49.16-49.16h223.242l38.92-69.64c7.16-12.28 24.56-12.28 30.72 0l38.92 69.64h223.242c26.64 0 49.16 21.52 49.16 49.16l-0.040 254.956c0 27.64-21.48 49.16-49.12 49.16zM313.364 774.636h15.36c32.76 0 59.4-28.68 56.32-61.44-2.040-25.6-22.52-44.040-47.12-49.16v-22.52c0-2.040-2.040-4.080-5.12-4.080h-25.6c-2.040 0-5.12 2.040-5.12 4.080v21.52c-24.56 4.080-44.040 24.56-47.12 50.16 0 3.080 2.040 5.12 5.12 5.12h25.6c2.040 0 4.080-1.040 4.080-3.080 2.040-10.24 10.24-18.44 21.52-18.44l16.4 0.040c11.28 0 20.48 7.16 22.52 18.44 2.040 13.32-8.2 25.6-21.52 25.6h-13.32c-29.68 0-55.28 21.52-58.36 50.16-3.080 30.72 18.44 56.32 47.12 61.44v21.52c0 2.040 2.040 5.12 5.12 5.12h25.6c2.040 0 5.12-2.040 5.12-5.12v-22.52c24.56-4.080 44.040-24.56 47.12-50.16 0-3.080-2.040-5.12-5.12-5.12h-25.6c-2.040 0-4.080 1.040-4.080 3.080-2.040 10.24-10.24 18.44-21.52 18.44h-14.32c-11.28 0-20.48-7.16-22.52-18.44-4.12-12.32 6.12-24.639 19.44-24.639zM503.808 774.636h15.36c32.76 0 59.4-28.68 56.32-61.44-2.040-25.6-22.52-44.040-47.12-49.16v-22.52c0-2.040-2.040-4.080-5.12-4.080h-25.6c-2.040 0-5.12 2.040-5.12 4.080l0.040 21.52c-24.56 4.080-44.040 24.56-47.12 50.16 0 3.080 2.040 5.12 5.12 5.12h25.6c2.040 0 4.080-1.040 4.080-3.080 2.040-10.24 10.24-18.44 21.52-18.44h14.32c11.28 0 20.48 7.16 22.52 18.44 2.040 13.32-8.2 25.6-21.52 25.6h-13.32c-29.68 0-55.28 21.52-58.36 50.16-3.080 30.72 18.44 56.32 47.12 61.44l0.040 21.56c0 2.040 2.040 5.12 5.12 5.12h25.6c2.040 0 5.12-2.040 5.12-5.12v-22.52c24.56-4.080 44.040-24.56 47.12-50.16 0-3.080-2.040-5.12-5.12-5.12h-25.6c-2.040 0-4.080 1.040-4.080 3.080-2.040 10.24-10.24 18.44-21.52 18.44h-14.32c-11.28 0-20.48-7.16-22.52-18.44-2.12-12.32 8.12-24.639 21.441-24.639zM694.292 774.636h15.36c32.76 0 59.4-28.68 56.32-61.44-2.040-25.6-22.52-44.040-47.12-49.16v-22.52c0-2.040-2.040-4.080-5.12-4.080h-25.6c-2.040 0-5.12 2.040-5.12 4.080v21.52c-24.56 4.080-44.040 24.56-47.12 50.16 0 3.080 2.040 5.12 5.12 5.12h25.6c2.040 0 4.080-1.040 4.080-3.080 2.040-10.24 10.24-18.44 21.52-18.44h14.32c11.28 0 20.48 7.16 22.52 18.44 2.040 13.32-8.2 25.6-21.52 25.6h-13.32c-29.68 0-55.28 21.52-58.36 50.16-3.080 30.72 18.44 56.32 47.12 61.44l0.040 21.56c0 2.040 2.040 5.12 5.12 5.12h25.6c2.040 0 5.12-2.040 5.12-5.12v-22.52c24.56-4.080 44.040-24.56 47.12-50.16 0-3.080-2.040-5.12-5.12-5.12h-25.6c-2.040 0-4.080 1.040-4.080 3.080-2.040 10.24-10.24 18.44-21.52 18.44l-13.32-0.040c-11.28 0-20.48-7.16-22.52-18.44-3.080-12.28 8.2-24.6 20.48-24.6z" />
<glyph unicode="&#xe903;" glyph-name="np_luxury_2195474_FFFFFF" d="M946.596 463.995h-240.118l87.28 236.196zM660.48 431.995l-148.48-401.838-148.48 401.838zM365.404 463.995l146.596 226.56 146.596-226.56zM541.409 704h219.638l-79.84-216.003zM342.804 487.997l-79.84 216.003h219.638zM471.644 46.961l-385.004 385.044h242.719zM694.641 432.005h242.719l-385.044-385.044zM230.236 700.201l87.28-236.196h-240.118zM672 848.476c4.68-6.28 10.2-11.8 16.48-16.48-6.28-4.68-11.8-10.2-16.48-16.48-4.68 6.28-10.2 11.8-16.48 16.48 6.28 4.68 11.8 10.2 16.48 16.48zM896 793.395c-9.52 15.84-22.76 29.080-38.6 38.6 15.84 9.52 29.080 22.76 38.6 38.6 9.52-15.84 22.76-29.080 38.6-38.6-15.84-9.52-29.080-22.76-38.6-38.6z" />
<glyph unicode="&#xe904;" glyph-name="np_maldives_221328_FFFFFF" d="M512 909.28c-203.643 0-368.681-165.038-368.681-368.681 0-101.84 45.28-190.198 108.001-260.721l260.68-293.161 260.721 293.161c62.68 70.52 108.001 158.884 108.001 260.68-0.040 203.643-165.12 368.722-368.722 368.722zM735.037 317.521c-59.56-59.56-138.762-92.4-223.037-92.4s-163.482 32.84-223.078 92.4c-59.56 59.6-92.4 138.803-92.4 223.037 0 173.916 141.517 315.443 315.443 315.443s315.484-141.517 315.484-315.443c0.040-84.24-32.8-163.482-92.4-223.037zM562.924 623.841c-5.4 1.080-11 1.64-16.76 1.64-46.76 0-84.68-36.92-84.68-82.44s37.92-82.4 84.68-82.4c5.76 0 11.32 0.56 16.76 1.64-38.719 7.56-67.92 40.88-67.92 80.8 0 39.88 29.2 73.2 67.92 80.76zM512 835.4c-162.56 0-294.84-132.239-294.84-294.799 0-78.76 30.68-152.801 86.36-208.476s129.72-86.36 208.476-86.36 152.801 30.68 208.476 86.36 86.36 129.72 86.36 208.476c0 162.56-132.239 294.799-294.84 294.799zM280.402 426.875v228.444h463.237v-228.444z" />
<glyph unicode="&#xe905;" glyph-name="np_maldives_777634_FFFFFF" d="M35.64 767.959h950.282v-635.402h-950.282zM158.725 255.683h704.123v389.202h-704.123zM417.080 486.001c-19.76-76.32 26.16-154.122 102.4-173.875 23.44-6.080 48-6.080 71.44 0-55.96 11.12-99.68 54.84-110.797 110.797-15.12 76.28 34.48 150.405 110.797 165.519-76.28 19.72-154.163-26.16-173.844-102.441z" />
<glyph unicode="&#xe906;" glyph-name="np_signed-letter_2919986_FFFFFF" d="M800 896h-576c-17.68 0-32-14.32-32-32v-832c0-8.48 3.36-16.64 9.36-22.64s14.16-9.36 22.64-9.36h576c8.48 0 16.64 3.36 22.64 9.36s9.36 14.16 9.36 22.64v832c0 8.48-3.36 16.64-9.36 22.64s-14.16 9.36-22.64 9.36zM352 768h192c17.68 0 32-14.32 32-32s-14.32-32-32-32h-192c-17.68 0-32 14.32-32 32s14.32 32 32 32zM697.6 300.8l-96-128c-5.56-7.48-14.080-12.16-23.359-12.84-9.28-0.64-18.4 2.72-24.96 9.32l-96 96c-12.56 12.56-12.56 32.88 0 45.44s32.88 12.56 45.44 0l69.76-70.081 73.921 98.56c10.6 14.12 30.68 17 44.8 6.4s17-30.68 6.4-44.8zM672 448h-320c-17.68 0-32 14.32-32 32s14.32 32 32 32h320c17.68 0 32-14.32 32-32s-14.32-32-32-32zM672 576h-320c-17.68 0-32 14.32-32 32s14.32 32 32 32h320c17.68 0 32-14.32 32-32s-14.32-32-32-32z" />
<glyph unicode="&#xe907;" glyph-name="np_signed-letter_2953313_FFFFFF" d="M800 896h-576c-17.68 0-32-14.32-32-32v-832c0-8.48 3.36-16.64 9.36-22.64s14.16-9.36 22.64-9.36h576c8.48 0 16.64 3.36 22.64 9.36s9.36 14.16 9.36 22.64v832c0 8.48-3.36 16.64-9.36 22.64s-14.16 9.36-22.64 9.36zM768 64h-512v768h512zM352 704h192c17.68 0 32 14.32 32 32s-14.32 32-32 32h-192c-17.68 0-32-14.32-32-32s14.32-32 32-32zM691.2 345.6c-14.12 10.6-34.2 7.72-44.8-6.4l-73.921-98.56-69.76 70.081c-12.56 12.56-32.88 12.56-45.44 0s-12.56-32.88 0-45.44l96-96c6.040-6 14.2-9.32 22.721-9.28h2.24c9.28 0.68 17.8 5.36 23.359 12.8l96 128c5.080 6.8 7.28 15.32 6.080 23.72s-5.68 16-12.481 21.080zM352 576h320c17.68 0 32 14.32 32 32s-14.32 32-32 32h-320c-17.68 0-32-14.32-32-32s14.32-32 32-32zM352 448h320c17.68 0 32 14.32 32 32s-14.32 32-32 32h-320c-17.68 0-32-14.32-32-32s14.32-32 32-32z" />
<glyph unicode="&#xe908;" glyph-name="np_integration_4112429_FFFFFF" d="M480 223.201h-32v-32.12c0-12.36-7.080-23.6-18.12-28.96-11.080-5.32-24.28-3.84-33.88 3.84l-160 128.481c-7.6 6.12-12 15.36-12 25.080 0 9.76 4.4 18.96 12 25.080l160 128.481c9.64 7.72 22.721 9.2 33.88 3.84 11.040-5.32 18.12-16.56 18.12-28.92v-32.12h32v96.36c0 17.76 14.32 32.12 32 32.12h96c16.84 0 30.64-13.040 31.92-29.6l76.88 61.72-76.88 61.72c-1.28-16.56-15.080-29.6-31.92-29.6h-96c-17.68 0-32 14.36-32 32.12v255.283c-232.079-16.6-416-210.924-416-448s183.921-431.401 416-448zM544 896v-223.201h32v32.12c0 12.36 7.080 23.6 18.12 28.96 11.080 5.36 24.24 3.84 33.88-3.84l160-128.481c7.6-6.12 12-15.36 12-25.080 0-9.76-4.4-18.96-12-25.080l-160-128.481c-9.6-7.76-22.721-9.24-33.88-3.84-11.040 5.32-18.12 16.56-18.12 28.92v32.12h-32v-96.36c0-17.76-14.32-32.12-32-32.12h-96c-16.84 0-30.64 13.040-31.92 29.6l-76.88-61.72 76.88-61.72c1.28 16.56 15.080 29.6 31.92 29.6h96c17.68 0 32-14.36 32-32.12v-255.283c232.079 16.6 416 210.924 416 448s-183.921 431.401-416 448z" />
<glyph unicode="&#xe909;" glyph-name="np_logistics_5604372_FFFFFF" d="M680.96 420.362l-20.48 27.64c4.080 10.24 5.12 13.32 10.24 23.56l34.8 5.12c9.2 1.040 16.4 9.2 16.4 18.44v39.92c0 9.2-7.16 17.4-16.4 18.44l-34.8 5.12c-4.080 10.24-5.12 13.32-10.24 23.56l20.48 27.64c5.12 7.16 5.12 17.4-2.040 24.56l-28.68 28.68c-6.16 6.16-16.4 7.16-24.56 2.040l-27.64-20.48c-10.24 4.080-13.32 5.12-23.56 10.24l-5.12 34.8c-1.040 9.2-9.2 16.4-18.44 16.4h-38.92c-9.2 0-17.4-7.16-18.44-16.4l-5.12-36.84c-10.24-4.080-13.32-5.12-23.56-10.24l-27.64 20.48c-7.16 5.12-17.4 5.12-24.56-2.040l-28.68-28.68c-6.16-6.16-7.16-17.4-2.040-24.56l20.48-27.64c-4.080-10.24-5.12-13.32-10.24-23.56l-34.8-5.12c-9.2-1.040-16.4-9.2-16.4-18.44v-39.92c0-9.2 7.16-17.4 16.4-18.44l34.8-5.12c4.080-10.24 5.12-13.32 10.24-23.56l-20.48-27.64c-5.12-7.16-5.12-17.4 2.040-24.56l28.68-28.68c6.16-6.16 17.4-7.16 24.56-2.040l27.64 20.48c10.24-4.080 13.32-5.12 23.56-10.24l5.12-34.8c1.040-9.2 9.2-16.4 18.44-16.4h39.92c9.2 0 17.4 7.16 18.44 16.4l5.12 34.8c10.24 4.080 13.32 5.12 23.56 10.24l27.64-20.48c7.16-5.12 17.4-5.12 24.56 2.040l28.68 28.68c6.16 8.16 7.2 18.4 1.040 26.6zM585.72 460.282c-29.68-29.68-77.84-29.68-107.52 0s-29.68 77.84 0 107.52c29.68 29.68 77.84 29.68 107.52 0 30.72-28.68 30.72-77.8 0-107.52zM532.48 823.798c-213.002 0-386.038-173.036-386.038-386.038 0-7.16 0-14.32 1.040-20.48 6.16 2.040 13.32 3.080 19.44 3.080 6.16 0 13.32-1.040 19.44-3.080 0 7.16-1.040 14.32-1.040 20.48 0 191.478 155.638 346.122 347.116 346.122 186.358 0 338.964-147.436 346.122-331.756h6.16c11.28 0 22.52-1.040 33.8-4.080-6.12 208.845-177.162 375.757-386.038 375.757zM48.12 323.082l111.596 51.2c2.040 1.040 4.080 1.040 7.16 1.040 2.040 0 5.12 0 7.16-1.040l111.596-51.2-118.804-54.28zM35.84 123.402c-6.16 3.080-10.24 9.2-10.24 15.36v152.556l121.836-55.28v-163.84zM185.364 234.998l121.836 56.32v-152.556c0-6.16-4.080-12.28-10.24-15.36l-111.596-51.2zM917.524 122.358c13.32 35.84 30.72 69.64 55.28 99.32 16.4 19.44 25.6 45.040 25.6 72.72 0 64.52-54.28 116.716-119.798 113.684-59.4-3.080-106.476-52.24-108.564-110.602-1.040-28.68 9.2-54.28 24.56-74.76 23.56-29.68 43-64.52 56.32-100.36 4.080-12.28 9.2-24.56 12.28-35.84 7.16-19.44 34.8-19.44 40.96 0 4.12 11.28 9.24 23.56 13.36 35.84zM884.725 233.994c-32.76 0-59.4 26.64-59.4 59.4s26.64 59.4 59.4 59.4c32.76 0 59.4-26.64 59.4-59.4 0-32.8-26.6-59.4-59.4-59.4zM742.4 221.676l-109.558 78.84c-8.2 5.12-18.44 0-18.44-9.2v-49.16h-234.476c-4.080 0-8.2-4.080-8.2-8.2v-43c0-4.080 4.080-8.2 8.2-8.2l234.476 0.040v-49.16c0-9.2 11.28-15.36 18.44-9.2l109.558 77.8c6.16 5.12 6.16 14.32 0 19.44z" />
<glyph unicode="&#xe90a;" glyph-name="np_design_1827259_FFFFFF" d="M250.563 697.764h121.682l-60.84 127.601zM241.080 101.284c0-38.76 31.52-70.32 70.32-70.32 38.76 0 70.32 31.52 70.32 70.32l-0.040 24.48h-140.595zM241.080 657.756h140.595v-492.001h-140.595zM659.036 128.563h-108.36l0.040-77.56c0-11.040 8.96-20 20-20h192.205c11.040 0 20 8.96 20 20v793.999c0 11.040-8.96 20-20 20h-192.205c-11.040 0-20-8.96-20-20v-94.8h69.64c11.040 0 20-8.96 20-20s-8.96-20-20-20h-69.64v-72.641h108.36c11.040 0 20-8.96 20-20s-8.96-20-20-20h-108.36v-81.84h69.64c11.040 0 20-8.96 20-20s-8.96-20-20-20h-69.64v-72.641h108.36c11.040 0 20-8.96 20-20s-8.96-20-20-20h-108.36v-81.84h69.64c11.040 0 20-8.96 20-20s-8.96-20-20-20h-69.64v-72.641h108.36c11.040 0 20-8.96 20-20-0.040-11.080-8.96-20.040-20.040-20.040z" />
<glyph unicode="&#xe90b;" glyph-name="np_savings_2086337_FFFFFF" d="M957.358 308.521c-21.68 13.4-48.6 15.2-71.84 4.68l-180.163-81.64c5.16-8.68 8.56-18.28 9.96-28.28 3.84-26.48-6.68-52.96-27.64-69.56-13.4-10.68-30.040-16.48-47.16-16.52-4.080 0-8.12 0.32-12.16 1l-253.358 41.279c-4.4 0.72-8.4 3.16-11 6.8-2.64 3.64-3.72 8.2-3 12.64s3.2 8.4 6.84 11c3.64 2.64 8.2 3.68 12.64 2.96l251.197-40.92c12.76-1.6 25.64 1.68 36.080 9.2 10.92 9.44 16.2 23.88 13.92 38.16s-11.8 26.36-25.12 31.92l-205.239 85.441c-5.24 2.2-10.88 3.32-16.6 3.32h-202.875c-9.52 0-18.72-3.12-26.28-8.92l-43.28-33.2v7.040c0 6.6-2.64 12.88-7.28 17.52s-10.92 7.24-17.48 7.24h-61.56c-13.68 0-24.76-11.080-24.76-24.76v-243.2c0-13.68 11.080-24.76 24.76-24.76h61.56c6.56 0 12.84 2.6 17.48 7.24s7.28 10.96 7.28 17.52v13.88l285.676-64.88c37.92-8.6 77.72-1.28 110.039 20.32l399.524 242.883c9.52 5.8 15.32 16.16 15.28 27.32s-5.88 21.48-15.44 27.28zM380.918 540.16c48.88-0.52 95.96 18.36 130.918 52.52 34.96 34.2 54.88 80.88 55.44 129.761 0.56 48.88-18.36 95.96-52.52 130.918-34.2 34.96-80.84 54.88-129.72 55.44-48.88 0.52-96-18.36-130.918-52.56-34.96-34.16-54.92-80.84-55.44-129.72-0.56-48.88 18.32-95.96 52.52-130.918 34.16-34.96 80.84-54.88 129.72-55.44zM379.718 710.605c-44.92 10.6-67.521 31-67.2 60.52 0.32 29.040 25.040 53.040 57.48 58.24l0.36 32.961 28.36-0.32-0.36-32.961c32.319-5.92 56.48-30.48 56.16-59.52l-28.36 0.32c0.2 17.2-19.16 31.96-42.28 32.2s-42.8-14.040-43-31.28c-0.080-5.4-0.24-21.84 45.4-32.6 44.92-10.6 67.521-31 67.2-60.52-0.32-29.040-25.040-53.040-57.44-58.24l-0.36-32.8-28.36 0.32 0.36 32.8c-32.319 5.92-56.48 30.48-56.16 59.52l28.36-0.32c-0.2-17.2 19.16-31.96 42.28-32.2s42.8 14.040 42.96 31.24c0.040 5.44 0.2 21.88-45.4 32.64zM519.322 485.56c-0.52-48.88 18.36-95.96 52.52-130.918 34.2-34.96 80.84-54.92 129.761-55.44 48.88-0.56 95.96 18.36 130.918 52.52 34.92 34.2 54.88 80.84 55.44 129.72 0.52 48.88-18.36 96-52.56 130.918-34.16 34.96-80.84 54.92-129.72 55.44-48.88 0.56-95.96-18.32-130.918-52.52-34.96-34.16-54.88-80.84-55.44-129.72zM700.365 469.64c-44.92 10.6-67.521 31-67.2 60.52 0.32 29.040 25.040 53.040 57.48 58.24l0.36 32.961 28.36-0.32-0.36-32.961c32.319-5.92 56.48-30.48 56.16-59.52l-28.36 0.32c0.2 17.2-19.16 31.96-42.28 32.2s-42.8-14.040-43-31.28c-0.080-5.4-0.24-21.84 45.36-32.6 44.92-10.6 67.521-31 67.2-60.52-0.32-29.040-25.040-53.040-57.44-58.24l-0.36-32.8-28.36 0.32 0.36 32.8c-32.319 5.92-56.48 30.48-56.16 59.52l28.36-0.32c-0.2-17.2 19.16-31.96 42.28-32.2 23.080-0.24 42.8 14.040 42.96 31.24 0.080 5.4 0.28 21.84-45.36 32.64z" />
<glyph unicode="&#xe90c;" glyph-name="np_maintenance_3628613_FFFFFF" d="M832.717 533.924l-21.441 17.080c-0.4 0.32-0.6 0.8-0.48 1.4 0.72 5.4 1 11 1 16.48 0 5.52-0.4 11-1 16.48-0.080 0.48 0.080 1.12 0.48 1.4l21.4 17.12c8.4 6.72 10.48 18.32 5.2 27.6l-23 39.92c-5.4 9.32-16.48 13.2-26.48 9.32l-25.52-10c-0.48-0.2-1-0.080-1.52 0.2-8.8 6.72-18.32 12.2-28.479 16.48-0.48 0.2-0.8 0.6-0.88 1.2l-4.080 27c-1.6 10.6-10.6 18.32-21.28 18.32h-46.080c-10.72 0-19.68-7.68-21.28-18.32l-4.080-27.12c-0.080-0.48-0.4-1-0.88-1.2-10.080-4.2-19.68-9.8-28.479-16.48-0.4-0.32-1-0.4-1.52-0.2l-25.52 10c-10 3.92-21.12 0-26.48-9.32l-23-39.92c-5.4-9.32-3.2-20.88 5.2-27.6l21.4-17.12c0.4-0.32 0.6-0.88 0.48-1.4-0.72-5.4-1-11-1-16.48 0-5.52 0.4-11 1-16.48 0.080-0.48-0.080-1.12-0.48-1.4l-21.4-17.12c-8.4-6.72-10.48-18.32-5.2-27.6l23-39.92c5.4-9.32 16.48-13.2 26.48-9.32l25.52 10c0.48 0.2 1 0.080 1.52-0.2 8.8-6.72 18.4-12.2 28.479-16.48 0.48-0.2 0.8-0.6 0.88-1.2l4.080-27.12c1.6-10.6 10.6-18.32 21.28-18.32h46.080c10.72 0 19.68 7.68 21.28 18.32l4.080 27.12c0.080 0.48 0.4 1 0.88 1.2 10.2 4.2 19.68 9.8 28.479 16.48 0.4 0.32 1 0.4 1.52 0.2l25.52-10c10-3.92 21.12 0 26.48 9.32l23 39.92c5.4 9.44 3.24 21.040-5.16 27.76zM683.602 513.804c-30.401 0-55 24.72-55 55 0 30.401 24.72 55 55 55 30.32 0 55-24.72 55-55 0-30.32-24.68-55-55-55zM908.319 846.203h-792.637c-25.281 0-45.92-20.6-45.92-45.92v-571.402c0-25.281 20.6-45.92 45.92-45.92l308.316 0.040v-93.121h-78.399v-39.999h332.8v39.999l-78.399 0.040v93.080h308.316c25.281 0 45.92 20.6 45.92 45.92l-0.040 571.279c0.12 25.4-20.52 46-45.88 46zM914.319 333.128h-804.516v168.96h92.8c23.12-47.2 71-77.28 123.924-77.28 46.48 0 89.52 23.2 115.2 62.080 3 4.48 3.2 10.2 0.72 14.88-2.48 4.72-7.52 7.68-12.88 7.68h-90.48l-29.2 53.2 29.2 53.2h90.48c5.4 0 10.32 3 12.88 7.68 2.48 4.72 2.28 10.4-0.72 14.88-25.6 38.8-68.72 62-115.2 62-52.88 0-100.801-30.080-123.924-77.28h-92.8v176.998c0 3.28 2.72 5.92 5.92 5.92h792.596c3.28 0 5.92-2.72 5.92-5.92l-0.040-466.995z" />
<glyph unicode="&#xe90d;" glyph-name="np_eco_1733799_FFFFFF" d="M599.921 648.755c-12.2-13.72-23.040-30.52-31.32-48.321-6.36 25-16.88 49.24-30 69.52 12.6 83.44-23.24 172.442-274.637 156.365 68.72-33.4 62.88-248.719 251.003-202.762-35.84 88.88-129.638 149.596-169.759 166.001 106.404-38.4 161.403-95.44 187.802-146.719 13.32-31.24 22.44-68.52 17.92-108.841l-95.52 72.8-275.036-209.603c-9.12-6.96-10.84-19.96-4-29.080 6.96-9 19.96-10.76 29.080-3.88l63.681 48.64v-345.078h372.316l0.040 345.037 63.681-48.64c3.8-2.88 8.2-4.2 12.481-4.2 6.24 0 12.4 2.76 16.48 8.080 6.96 9.12 5.24 22.12-3.88 29.080l-158.597 120.955c3.16 13.32 4.32 27.76 3.28 42.8 4.92 24.28 14.84 45.761 26.32 64.2 14.44 19.88 35.040 40.16 63.88 57.76 28.88 17.601 66.040 32.56 113.357 41.88-35.96-8.6-122.88-47.84-164.557-118.159 152.801-63.080 175.524 119.521 237.875 138.844-210.125 45.88-251.802-24.68-251.884-96.68zM514.081 80.558h-117.637v109.681c0 40.96 26.52 74.559 58.88 74.559s58.76-33.599 58.76-74.559z" />
<glyph unicode="&#xe90e;" glyph-name="np_ocean_4969779_FFFFFF" d="M128 247.757c27.199-1.32 81.601 1.88 105.8 45.4 2.88 5.2 8.24 8.080 14.36 8.28 5.92-0.12 11.32-3.44 14-8.76 14.8-26.64 42.44-42.92 73.56-42.92h0.040c31.12 0 58.72 16.28 73.84 43.52 2.8 5.040 8.080 8.24 13.88 8.24h0.080c5.72 0 11.040-3.080 13.88-8.080 15.32-27.6 42.92-43.88 74.040-43.88h0.040c31.12 0 58.72 16.24 73.84 43.44 2.8 5.080 8.24 8.36 14 8.36h0.040c5.8 0 11.201-3 14-8.080 15.36-27.6 42.96-43.88 74.080-43.88s58.68 16.24 73.84 43.44c2.8 5.040 8.24 8.4 14 8.4h0.12c5.72 0 11.12-2.84 14-7.84 24.96-44.84 80.959-47.24 106.516-45.8 7.92 0.44 13.040 1.24 13.24 1.28l18.8 0.16v144.2c0 4.72-2.080 9.2-5.68 12.24s-8.4 4.36-13.040 3.52c-0.88-0.12-87.040-14.24-119.757 44.56-2.84 4.96-8.24 7.84-14 7.84h-0.12c-5.76-0.040-11.201-3.4-14-8.4-15.12-27.199-42.72-43.44-73.84-43.44s-58.72 16.24-74.080 43.88c-2.8 5.040-9.84 8.080-14.040 8.080-5.8 0-11.24-3.28-14-8.36-15.12-27.199-42.72-43.44-73.84-43.44h-0.040c-31.12 0-58.72 16.24-74.040 43.88-2.84 5-8.16 8.080-13.88 8.080h-0.080c-5.8-0.040-11.080-3.2-13.88-8.24-15.12-27.24-42.68-43.48-73.84-43.52h-0.040c-31.12 0-58.72 16.24-73.56 42.92-2.64 5.32-8.080 8.64-14 8.76-6.16-0.36-11.48-3.12-14.36-8.28-32.24-58-118.282-44.36-119.122-44.16-8.96 1.4-17-4.4-18.48-13.119l-0.28-146.842h16c0.88-0.080 6.92-1 16-1.44zM109.281 57.436c4.040-0.68 89.96-14.64 138.476 40.32 21.84-25.36 53.32-39.999 87.96-39.999h0.080c34.6 0 66 14.6 87.76 39.88 21.84-25.36 53.32-39.999 87.96-39.999h0.040c34.64 0 66.080 14.56 87.92 39.999 21.84-25.44 53.36-40.12 88.040-40.12h0.040c34.6 0 66.040 14.6 88.040 40.2 31.32-35.84 78.68-42.44 109.322-42.44 16.72 0 28.44 1.96 29.84 2.2 7.68 1.32 13.24 7.96 13.24 15.72v143.995h-16c-1.2-0.72-20.64-2.040-27.48-2.040-29.84 0-77.4 6.48-108.882 42.52-22-25.64-53.441-40.2-88.040-40.2h-0.040c-34.68 0-66.241 14.64-88.040 40.12-21.84-25.4-53.36-39.999-87.92-39.999h-0.040c-34.64 0-66.16 14.64-87.96 39.999-21.8-25.281-53.2-39.84-87.76-39.88h-0.080c-34.64 0-66.16 14.64-87.96 39.999-35.56-40.2-91-43.48-119.798-42.080-10.559 0.52-17.64 1.64-18.72 1.84l-13.28-0.080v-144.2c0-7.8 5.6-14.44 13.28-15.76zM307.558 786.924c6.48-3.6 14.52-2.12 19.44 3.12 14.16 14.080 29.121 20.2 44.24 18 19-2.64 38.28-18.52 51.72-42.64 2.8-5.080 8.24-8.12 14.040-8.12s11.24 3.28 14 8.32c13.4 24.16 32.64 40.12 51.36 42.76 14.92 2.080 29.64-3.96 43.92-17.92 4.68-5.44 12.56-7.24 19.28-3.88 9.6 4.8 11.64 18.16 4.12 25.68-27.4 27.4-54.040 30.24-71.76 27.76-22.48-3.16-43.96-16.72-61.040-38.16-17.080 21.24-38.6 34.68-61.24 37.84-17.68 2.56-44.481-0.24-71.6-27.36-6.68-6.76-6.12-20.080 3.52-25.4zM516.844 669.839c-6.92-6.92-5.72-20.44 3.68-25.52 6.52-3.52 14.36-2 19.24 3.16 9.56 9.44 19.32 13.52 29.32 12.16 12.84-1.84 26-12.8 35.080-29.040 2.64-5.32 8.080-8.64 14-8.76h0.36c5.84 0 11.201 3.2 14 8.28 9.36 16.8 22.48 27.92 35.12 29.68 9.96 1.36 19.519-2.76 29.16-12.080 4.88-5.56 13.2-7.080 19.92-3.28 9.040 5.16 10.64 17.96 3.32 25.281-21.56 21.56-42.8 23.8-56.8 21.8-16.36-2.28-31.92-11.44-44.76-26-12.8 14.399-28.44 23.52-44.92 25.84-14.2 1.96-35.44-0.16-56.72-21.52z" />
<glyph unicode="&#xe90f;" glyph-name="np_architecture_4433725_FFFFFF" d="M167.475 298.68h3.2v554.639c-65.599-5.040-118.641-55.48-126.956-120.719-0.72-2.36-1.080-4.8-1.040-7.28v-490.639c31.28 37.24 76.28 60.32 124.805 64zM960 618.68h-21.32v-405.361c0-35.32-28.68-64-64-64h-490.68c-24.001 0-46.040 13.4-57 34.76s-9.080 47.080 4.96 66.6l71.48 99.64 21.32 29 32 44.36 5.32 7.48 39.24 54.6v1.080l5.12 6.84 78.32 109.24 12.56 15.76h-384v-362.68h-42.64c-69.16-5.2-123.843-60.68-128-129.925-0.24-2.76-0.24-5.56 0-8.32-0.080-36.84 14.52-72.2 40.52-98.28s61.32-40.76 98.12-40.8h778.68c5.64 0 11.080 2.24 15.080 6.24s6.24 9.44 6.24 15.080v597.32c0 5.68-2.24 11.080-6.24 15.080s-9.44 6.28-15.080 6.28zM746.68 505.6l-109.445-164.28h109.445zM682.68 533.32c-4.2-0.040-8.32 1.24-11.76 3.64l-54.4 36.28-19.2-27.96 55.48-36.92c7.96-5.32 11.4-15.28 8.4-24.36-2.96-9.080-11.64-15.080-21.2-14.68-4.2-0.040-8.28 1.24-11.72 3.64l-56.76 37.76-20.040-27.96 57.6-38.4c7.76-5.2 11.201-14.88 8.52-23.84s-10.92-15.12-20.28-15.2c-4.2-0.040-8.28 1.24-11.72 3.64l-59.080 39.040-20.040-27.96 59.92-39.88c7.56-5.28 10.88-14.84 8.2-23.68-2.64-8.84-10.72-14.96-19.92-15.16-4.2-0.040-8.32 1.24-11.76 3.64l-61.24 40.76-20.040-27.96 62.080-41.4c7.76-5.2 11.24-14.88 8.56-23.84-2.72-8.96-10.92-15.12-20.28-15.2-4.2-0.040-8.28 1.24-11.72 3.64l-64 42.68-70-97.52c-4.92-6.56-5.64-15.36-1.88-22.64 3.8-7.24 11.4-11.72 19.6-11.48h490.68c5.64 0 11.080 2.24 15.080 6.24s6.24 9.44 6.24 15.080v682.68c0.48 9.6-5.56 18.36-14.72 21.32-2.2 0.32-4.4 0.32-6.6 0-6.88 0-13.32-3.36-17.28-8.96l-81.28-113.080 46.28-30.92c7.76-5.2 11.24-14.88 8.52-23.84-2.68-8.96-10.88-15.12-20.24-15.2-4.2-0.040-8.32 1.24-11.76 3.64l-47.76 31.8-20.040-27.96 48.6-32.44c7.76-5.2 11.24-14.88 8.56-23.84-2.72-8.96-10.92-15.12-20.28-15.2-4.2-0.040-8.28 1.24-11.72 3.64l-49.92 33.28-20.040-27.96 50.76-33.92c5.96-3.92 9.56-10.559 9.6-17.68-0.040-4.2-1.32-8.28-3.64-11.76-3.92-5.96-10.559-9.56-17.72-9.6-4.2-0.040-8.28 1.24-11.72 3.64l-52.28 34.761-12.16-17.080-7.88-10.88 53.12-35.4c7.76-5.2 11.24-14.88 8.52-23.84-2.68-8.96-10.88-15.12-20.24-15.2zM750.321 587.72h-0.040c4.92 8.2 14.68 12.12 23.92 9.6 9.32-2.8 15.56-11.6 15.12-21.32v-256c0-5.64-2.24-11.080-6.24-15.080s-9.44-6.24-15.080-6.24h-170.68c-7.84 0-15.080 4.36-18.76 11.28-3.48 6.8-3.080 14.92 1.080 21.36z" />
<glyph unicode="&#xe910;" glyph-name="np_island_18162_FFFFFF" d="M1023.119 522.875c-7.080 15.96-16.12 28.92-27.16 41.6-11 12.481-23.84 23.64-38.2 33.12-8.16 5.4-16.84 10.16-25.84 14.399 0.4 0.36 0.72 0.72 1.12 1.080 4.56 4.040 9.68 7.88 15.16 11.48 5.36 3.56 11.44 6.96 17 9.88l1.16 0.6c2.64 1.4 4.64 3.84 5.4 6.96 1.32 5.72-2.24 11.44-7.92 12.76-7.72 1.8-14.88 3.16-22.56 4.12-7.64 0.96-15.44 1.48-23.6 1.44-8.12-0.080-16.6-0.76-25.48-2.56-3.72-0.76-7.56-1.88-11.44-3.12-7.44 15.6-17.080 30.64-29.4 43.24-13.64 14.16-30.32 24.56-47.041 31.28-16.84 6.76-33.76 10.12-50.239 12.24-4.36 0.56-8.76-1.72-10.68-5.92-2.36-5.16-0.080-11.28 5.080-13.68l0.12-0.040c14.2-6.48 27.48-14 38.36-23.040 10.92-9.040 19.28-19.44 24.8-30.84 0.24-0.52 0.4-1.040 0.64-1.52-22.68 7.52-45.761 11.24-68.32 11.72-25.4 0.52-50.2-2.68-73.921-9-23.68-6.36-46.44-15.8-66.8-29.28-3.92-2.6-5.68-7.68-3.88-12.28 2.040-5.28 8-7.88 13.28-5.84l0.2 0.080c20.080 7.84 41.6 11.68 62.88 12.68 21.28 0.96 42.52-1 62.48-5.8 9.16-2.2 17.96-5.080 26.36-8.48-4.040-1.8-8.040-3.64-11.88-5.64-10.6-5.6-20.64-11.92-30.080-19.24-9.36-7.36-18.44-15.6-25.44-26.4-2-3.12-2.28-7.28-0.32-10.72 2.8-4.96 9.12-6.68 14.080-3.84l1.12 0.64c7.48 4.28 16.68 7.040 25.96 8.84 9.32 1.84 18.96 2.76 28.44 2.96 5.040 0.080 10.040-0.080 14.96-0.44-2.48-1.88-5-3.76-7.48-5.72-28.96-23.2-54.16-51.32-74.8-82.84s-36.48-66.48-47.2-103.035c-2.52-8.52-4.72-17.2-6.68-25.919-48.44 7.96-97.56 12.040-146.401 12.12v81.64h27.080c15.92 0 19.72 9.2 8.48 20.44l-150.323 150.323c-11.24 11.24-29.64 11.24-40.88 0l-150.241-150.241c-11.24-11.24-7.44-20.44 8.48-20.44h27.080v-124.396c-88.24-30-167.281-75.6-228.639-137.001 16.6 4.84 34.16 7.56 52.161 7.56 28.080 0 54.96-6.52 78.84-17.4 23.359-10.68 49.52-16.959 76.6-16.959 27.199 0 53.36 6.28 76.68 16.959 23.76 10.92 50.72 17.4 78.84 17.4 28 0 55-6.52 78.84-17.4 23.24-10.68 49.24-16.959 76.481-16.959s53.28 6.28 76.76 16.959c23.8 10.92 50.8 17.4 78.64 17.4 28.12 0 55.080-6.52 78.96-17.4 23.16-10.68 49.56-16.959 76.481-16.959 27.24 0 53.2 6.28 76.76 16.959 23.76 10.92 50.72 17.4 78.68 17.4 10.72 0 21.28-0.96 31.6-2.76-85.56 72.12-191.601 121.723-304.323 149.238 0.64 8.44 1.48 16.92 2.76 25.4 4.64 31.8 13.8 63.16 27.68 92.72 13.88 29.52 32.4 57.281 55.2 81.44 6.84 7.24 14.12 14.16 21.72 20.76 4.44-1.48 9.2-2.24 14.080-2.12 1.6 0.040 3.12 0.36 4.64 0.6 1.28-0.92 2.6-1.72 4-2.48 4.12-8.080 7.64-17.080 10.4-26.561 2.92-10.080 4.96-20.68 6.040-31.32 1.040-10.6 1.080-21.48-0.92-31.24l-0.2-1c-0.76-3.84 0.68-7.96 4.040-10.44 4.6-3.36 11.080-2.32 14.399 2.28 8.16 11.201 13.28 23.359 17.4 35.72 4.080 12.4 7.040 25.12 8.88 38.24 1.36 9.76 2.12 19.72 2.12 30.040 10.76-0.44 21.56-1.92 32.2-4.68 12.6-3.24 25.040-8.24 36.84-15 11.64-6.56 23.28-15.56 32-24.88l0.96-1.040c2.88-3.080 7.52-4.16 11.6-2.36 5.24 2.36 7.56 8.4 5.28 13.52z" />
<glyph unicode="&#xe911;" glyph-name="np_aquaponics_58363_FFFFFF" d="M256 510.044c14.28 0 26.96 5.080 41.68 10.96 17.16 6.84 36.56 14.64 60.72 14.64 24.12 0 43.56-7.76 60.72-14.64 14.72-5.88 27.44-10.96 41.68-10.96 14.28 0 26.96 5.080 41.68 10.96 17.16 6.84 36.56 14.64 60.72 14.64 24.12 0 43.56-7.76 60.72-14.64 14.72-5.88 27.44-10.96 41.68-10.96 14.28 0 26.96 5.080 41.68 10.96 17.16 6.84 36.56 14.64 60.72 14.64 24.12 0 43.56-7.76 60.72-14.64 10.32-4.12 19.64-7.76 29.2-9.6l38.081 165.038h-140.8v32.040c0.88-0.040 1.76-0.16 2.64-0.16 44.36 0 63.64 45.44 67.64 69.48 0.32 1.84-0.2 3.76-1.44 5.2-1.2 1.44-3 2.28-4.88 2.28-20.84 0-36.4-4.36-48.080-10.88-5.16 25.48-22.96 46.040-23.92 47.12-1.2 1.36-2.96 2.16-4.76 2.16h-0.040c-1.84 0-3.56-0.76-4.76-2.16-13.8-15.52-21.68-31.32-23.68-47.16-11.72 6.6-27.36 11.040-48.321 11.040-1.88 0-3.68-0.84-4.88-2.28-1.24-1.44-1.76-3.32-1.44-5.2 4-24.040 23.32-69.48 67.64-69.48 0.88 0 1.76 0.12 2.64 0.16v-32.16h-179.2v33.56c4.64-1.040 9.2-1.56 13.56-1.56 37.080 0 53.36 37.84 56.76 57.88 0.32 1.88-0.4 3.76-1.64 5.2-1.2 1.44-3.2 2.28-5.080 2.28-39.2 0-56.2-18.68-63.6-34.76v48.64c8.040 2.36 15.16 6.28 20.96 12.28 19.16 19.76 18.44 52 18.4 53.36-0.080 1.88-0.96 3.64-2.4 4.8-1.48 1.16-3.4 1.64-5.24 1.28-40.6-8.040-57.32-29.44-57.32-55.040v-27.080c-7.44 16.080-24.52 34.8-64.040 34.8-1.88 0-3.68-0.84-4.88-2.28s-1.72-3.36-1.4-5.2c3.4-20 19.64-57.88 56.76-57.88 4.36 0 8.88 0.56 13.56 1.56v-71.96l-230.001 0.080c1.36 44.56 6.080 63.12 8.8 66.76 0.84 0.84 1.32 1.88 1.84 2.88 1.84-0.080 3.8-0.36 5.56-0.36 91.16 0 92.2 96.16 92.2 97.12 0 1.68-0.68 3.32-1.88 4.52s-2.84 1.88-4.52 1.88c-40.76 0-70.92-10.88-89.64-32.319-14.88-17.040-18.96-36.76-19.84-49.88-2.6 17.36-15.92 61.88-82.48 61.88-1.88 0-3.68-0.84-4.88-2.28-1.24-1.44-1.76-3.32-1.44-5.2 4-24.040 23.32-69.48 67.64-69.48 4.44 0 9.080 0.56 13.8 1.48-4.44-9.24-9.48-29.32-10.84-77l-115.476 0.040 33.64-145.756c9.76-2.76 18.68-6.32 27.080-9.68 14.72-5.88 27.4-10.96 41.68-10.96zM563.2 510.044c-38.4 0-64-25.6-102.4-25.6s-64 25.6-102.4 25.6-64-25.6-102.4-25.6-64 25.6-102.4 25.6-64-25.6-102.4-25.6v-76.8c38.4 0 64 25.6 102.4 25.6s64-25.6 102.4-25.6 64 25.6 102.4 25.6 64-25.6 102.4-25.6 64 25.6 102.4 25.6 64-25.6 102.4-25.6 64 25.6 102.4 25.6 64-25.6 102.4-25.6 64 25.6 102.4 25.6v76.8c-38.4 0-64-25.6-102.4-25.6s-64 25.6-102.4 25.6-64-25.6-102.4-25.6-64 25.6-102.4 25.6zM856.402 172.759c-7.32 10.68-38.88-20.72-51.84-20.72-10.36 0-40.6 20.72-82.92 20.72-62.2 0-93.28-26.36-93.28-41.48s31.080-41.44 93.28-41.44c42.32 0 72.56 20.72 82.92 20.72 12.96 0 44.52-31.44 51.84-20.72 5.64 8.2-10.36 24.6-10.36 41.44 0 16.88 16 33.28 10.36 41.48zM681.718 123.199c-7.040 0-12.8 5.72-12.8 12.8s5.76 12.8 12.8 12.8c7.080 0 12.8-5.72 12.8-12.8s-5.68-12.8-12.8-12.8zM588.759 326.359c-7.32 10.68-38.88-20.72-51.8-20.72-10.36 0-40.6 20.72-82.92 20.72-62.2 0-93.28-26.36-93.28-41.48s31.080-41.44 93.28-41.44c42.32 0 72.56 20.72 82.92 20.72 12.96 0 44.52-31.44 51.8-20.72 5.64 8.2-10.36 24.6-10.36 41.44 0 16.88 16 33.28 10.36 41.48zM414.075 276.799c-7.040 0-12.8 5.72-12.8 12.8s5.76 12.8 12.8 12.8c7.080 0 12.8-5.72 12.8-12.8s-5.68-12.8-12.8-12.8zM396.759 121.559c-7.32 10.68-38.88-20.72-51.8-20.72-10.36 0-40.6 20.72-82.92 20.72-62.2 0-93.28-26.36-93.28-41.48s31.080-41.44 93.28-41.44c42.32 0 72.56 20.72 82.92 20.72 12.96 0 44.52-31.44 51.8-20.72 5.64 8.2-10.36 24.6-10.36 41.44 0 16.88 16 33.28 10.36 41.48zM222.075 71.999c-7.040 0-12.8 5.72-12.8 12.8s5.76 12.8 12.8 12.8c7.080 0 12.8-5.72 12.8-12.8s-5.68-12.8-12.8-12.8z" />
<glyph unicode="&#xe912;" glyph-name="np_boat_3519603_FFFFFF" d="M532.48 814.602h-40.96v71.68c0 11.28 9.2 20.48 20.48 20.48s20.48-9.2 20.48-20.48zM665.6 753.162c0 11.28-9.2 20.48-20.48 20.48h-266.24c-11.28 0-20.48-9.2-20.48-20.48v-92.16h307.2zM502.804 546.324c1.040 0 2.040 1.040 3.080 1.040h1.040c2.040 0 3.080 1.040 5.12 1.040s3.080 0 5.12-1.040h1.040c1.040 0 2.040-1.040 3.080-1.040h1.040l225.28-124.918-0.080 178.156c0 11.28-9.2 20.48-20.48 20.48h-430.080c-11.28 0-20.48-9.2-20.48-20.48v-179.2l226.324 125.962c-1.040 0 0 0 0 0zM966.646 11.766c-29.68-29.68-78.84-29.68-108.564 0-14.32 14.32-36.88 14.32-51.2 0s-34.8-22.52-54.28-22.52c-5.12 0-10.24 0-14.32 1.040h-1.040c-14.32 3.080-27.64 10.24-37.88 19.44l-1.040 1.040c-14.32 14.32-36.88 14.32-51.2 0l-1.040-1.040c-29.68-28.68-76.8-28.68-106.476 0l-1.040 1.040c-14.32 14.32-36.88 14.32-51.2 0l-1.040-1.040c-14.32-14.32-32.76-21.52-53.24-21.52s-38.92 8.2-53.24 21.52l-1.040 1.040c-13.32 13.32-37.88 13.32-51.2 0l-1.040-1.040c-10.24-9.2-21.52-15.36-34.8-19.44h-4.12c-5.12-1.040-10.24-1.040-14.32-1.040-20.48 0-39.92 8.2-54.28 22.52-13.32 13.32-37.88 13.32-51.2 0-29.68-29.68-78.84-29.68-108.564 0-8.2 8.2-8.2 20.48 0 28.68s20.48 8.2 28.68 0c14.32-14.32 36.88-14.32 51.2 0s33.8 22.52 54.28 22.52c5.12 0 10.24-1.040 15.36-2.040 14.32-3.080 27.64-10.24 38.92-20.48 7.16-7.16 16.4-10.24 25.6-10.24 2.040 0 5.12 0 7.16 1.040 2.040 0 3.080 1.040 5.12 1.040 1.040 0 2.040 1.040 2.040 1.040s1.040 0 1.040 1.040c-76.72 69.56-121.764 168.919-124.836 276.439l327.68 182.282v-344.084c0-11.28 9.2-20.48 20.48-20.48s20.48 9.2 20.48 20.48v344.044l327.68-182.282c-3.080-107.52-47.12-207.882-123.924-277.524 1.040 0 2.040-1.040 3.080-1.040s1.040 0 2.040-1.040c1.040 0 3.080-1.040 4.080-1.040 12.28-2.040 23.56 1.040 32.76 10.24 11.28 11.28 24.56 18.44 38.92 20.48 24.56 5.12 51.2-2.040 70.64-20.48 14.32-14.32 36.88-14.32 51.2 0 8.2 8.2 20.48 8.2 28.68 0 7.2-8.12 7.2-20.4-1-28.6z" />
<glyph unicode="&#xe913;" glyph-name="np_renewable-energies_1002722_FFFFFF" d="M772.485 151.675c-34.56 0-67.2 15.36-88.96 42.24-10.24 12.8-24.96 19.2-40.96 19.2s-30.72-7.040-40.96-19.2c-22.4-26.88-55.040-42.24-88.96-42.24-34.56 0-67.2 15.36-88.96 42.24-10.24 12.8-24.96 19.84-40.96 19.84s-30.72-7.040-40.96-19.84c-22.4-26.88-55.040-42.24-88.96-42.24-34.56 0-67.2 15.36-88.96 42.24l48 40.32c10.24-12.8 24.96-19.84 40.96-19.84s30.72 7.040 40.96 19.2c22.4 26.88 55.040 42.24 88.96 42.24 34.56 0 67.2-15.36 88.96-42.24 10.24-12.8 24.96-19.2 40.96-19.2s30.72 7.040 40.96 19.2c22.4 26.88 55.040 42.24 88.96 42.24 34.56 0 67.2-15.36 88.96-42.24 10.24-12.8 24.96-19.2 40.96-19.2s30.72 7.040 40.96 19.2l48-40.32c-21.76-26.24-54.4-41.6-88.96-41.6zM772.485 5.755c-34.56 0-67.2 15.36-88.96 42.24-10.24 12.8-24.96 19.2-40.96 19.2s-30.72-7.040-40.96-19.2c-22.4-26.88-55.040-42.24-88.96-42.24-34.56 0-67.2 15.36-88.96 42.24-10.24 12.8-24.96 19.2-40.96 19.2s-30.72-7.040-40.96-19.2c-22.4-26.88-55.040-42.24-88.96-42.24s-67.2 15.36-88.96 42.24c-10.24 12.8-24.96 19.2-40.96 19.2s-30.72-7.040-40.96-19.2l-49.92 40.32c22.4 26.88 55.040 42.24 88.96 42.24 34.56 0 67.2-15.36 88.96-42.24 10.24-12.8 24.96-19.84 40.96-19.84s30.72 7.040 40.96 19.2c22.4 26.88 55.040 42.24 88.96 42.24 34.56 0 67.2-15.36 88.96-42.24 10.24-12.8 24.96-19.84 40.96-19.84s30.72 7.040 40.96 19.2c22.4 26.88 55.040 42.24 88.96 42.24 34.56 0 67.2-15.36 88.96-42.24 10.24-12.8 24.96-19.84 40.96-19.84s30.72 7.040 40.96 19.2c22.4 26.88 55.040 42.24 88.96 42.24 34.56 0 67.2-15.36 88.96-42.24l-48-40.32c-10.24 12.8-24.96 19.2-40.96 19.2s-30.72-7.040-40.96-19.2c-19.84-24.96-52.48-40.32-87.040-40.32zM821.76 585.605c-16.64 39.68-40.96 75.52-72.32 106.24-30.72 30.72-66.56 55.040-106.885 71.68-40.96 17.28-85.12 26.24-130.56 26.24s-89.6-8.96-130.56-26.24c-40.32-16.64-76.16-40.96-106.885-71.68s-55.040-66.56-72.32-106.24c-17.28-40.96-26.24-85.12-26.24-129.925s8.96-88.96 26.24-130.56c12.16-28.8 28.16-55.040 48-79.36h1.28c6.4 0 12.16 2.56 17.28 8.32 3.84 4.48 8.32 8.96 12.8 13.44 27.52 25.6 62.72 40.32 100.48 40.32 42.88 0 83.2-18.56 111.36-51.2v232.96l18.56 7.68 18.56-7.68v-233.595c28.16 32.64 68.48 51.2 111.36 51.2 37.76 0 73.6-14.72 100.48-40.32 4.48-4.48 8.96-8.32 12.8-13.44 4.48-5.76 10.24-8.32 16.64-8.32h1.28c19.84 24.32 35.84 50.56 48 79.36 17.28 40.96 26.24 85.12 26.24 130.56s-8.32 88.96-25.6 130.56zM630.395 482.57l-118.395 49.28-118.395-49.28-14.72 34.56 113.92 47.36v121.6h37.76v-121.6l113.92-47.36zM487.035 890.24h49.92v-49.92h-49.92zM318.484 846.356l45.96 19.519 19.519-45.96-45.96-19.519zM185.518 745.001l35.2 35.4 35.4-35.2-35.2-35.4zM99.48 601.641l19.32 46.040 46.6-19.6-19.32-46.040zM639.119 819.436l19.519 45.96 45.96-19.519-19.519-45.96zM768 745.001l35.4 35.2 35.2-35.4-35.4-35.2zM858.757 628.316l46.6 19.6 19.36-46.040-46.6-19.6zM898.56 480.645h50.56v-49.92h-50.56zM858.962 282.235l19.32 46.040 46.6-19.6-19.32-46.040zM99.24 308.838l46.6 19.6 19.32-46.040-46.6-19.6zM74.88 480.645h50.56v-49.92h-50.56z" />
<glyph unicode="&#xe914;" glyph-name="np_approved_2223107_FFFFFF" d="M880.804 934.4h-747.203c-64.8 0-117.596-52.799-117.596-117.596v-736.799c0-64.8 52.799-117.596 117.596-117.596h756.797c64.8 0 117.596 52.799 117.596 117.596v736.799c0 62.401-59.199 117.596-127.201 117.596zM929.604 79.196c0-21.6-17.601-39.2-39.2-39.2h-756.797c-21.6 0-39.2 17.601-39.2 39.2v737.597c0 21.6 17.601 39.2 39.2 39.2h756.797c21.6 0 39.2-17.601 39.2-39.2zM716.8 657.603l-293.601-293.601-115.999 116.797c-23.2 23.2-60.8 23.2-84 0s-23.2-60.8 0-84l158.403-158.403c12-12 27.199-16.8 42.4-16.8s30.401 5.6 42.4 16.8l335.995 336.804c21.6 22.4 21.6 60-1.6 83.2-23.2 22.4-60.8 22.4-84-0.8z" />
<glyph unicode="&#xe915;" glyph-name="np_approved_3201882_FFFFFF" d="M642.038 53.76c-38.92-18.44-82.96-29.68-130.038-29.68-46.080 0-90.12 10.24-129.044 28.68v-30.72c0-12.28-4.080-24.56-10.24-33.8 43-17.4 90.12-27.64 140.278-27.64 50.16 0 97.28 10.24 140.278 27.64-7.16 9.2-10.24 21.52-10.24 33.8l0.040 31.72zM704.522 559.596c45.040-37.88 78.84-88.080 96.24-145.398 12.28 4.080 26.64 6.16 39.92 6.16 8.2 0 16.4-1.040 24.56-2.040-22.52 89.080-78.84 165.878-154.644 215.040v-45.080c1.080-10.24-0.96-20.48-6.080-28.68zM222.198 414.198c17.4 57.36 51.2 107.52 96.24 145.398-4.080 8.2-7.16 18.44-7.16 28.68v45.080c-75.76-49.16-131.082-125.962-154.644-215.040 8.2 1.040 16.4 2.040 24.56 2.040 15.4 0 28.72-2.040 41-6.16zM602.122 844.278c0-49.76-40.36-90.12-90.12-90.12s-90.12 40.36-90.12 90.12 40.36 90.12 90.12 90.12 90.12-40.36 90.12-90.12zM371.722 579.082h279.562c5.12 0 9.2 4.080 9.2 9.2v42c0 45.040-29.68 83.96-69.64 97.28-22.52-15.36-50.16-24.56-79.88-24.56-29.68 0-57.36 9.2-79.88 24.56-40.96-14.32-69.64-52.24-69.64-97.28v-42c1.040-5.12 5.16-9.2 10.28-9.2zM262.164 163.318c-22.52-15.36-50.16-25.6-79.88-25.6-29.68 0-57.36 9.2-79.88 25.6-39.92-14.32-69.64-53.24-69.64-98.32v-42c0-5.12 4.080-9.2 9.2-9.2h279.562c5.12 0 9.2 4.080 9.2 9.2v42c1.040 46.12-27.6 84-68.56 98.32zM272.404 279.040c0-49.76-40.36-90.12-90.12-90.12s-90.12 40.36-90.12 90.12 40.36 90.12 90.12 90.12 90.12-40.36 90.12-90.12zM921.6 163.318c-22.52-15.36-50.16-25.6-79.88-25.6-29.68 0-57.36 9.2-79.88 25.6-39.92-14.32-68.6-53.24-68.6-98.32v-42c0-5.12 4.080-9.2 9.2-9.2h279.562c5.12 0 9.2 4.080 9.2 9.2v42c0.040 46.12-28.64 84-69.6 98.32zM931.84 279.040c0-49.76-40.36-90.12-90.12-90.12s-90.12 40.36-90.12 90.12 40.36 90.12 90.12 90.12 90.12-40.36 90.12-90.12zM512 480.758c-90.12 0-163.84-72.72-163.84-163.84s72.72-163.84 163.84-163.84c90.12 0 163.84 72.72 163.84 163.84 0 91.16-73.72 163.84-163.84 163.84zM592.88 343.562l-81.92-88.080c-4.080-5.12-10.24-7.16-16.4-7.16s-12.28 3.080-16.4 7.16l-47.041 49.16c-8.2 9.2-8.2 23.56 1.040 32.76 9.2 9.2 23.56 8.2 32.76-1.040l29.68-31.76 65.52 70.64c8.2 9.2 23.56 10.24 32.76 1.040 8.2-9.16 9.24-23.52 0-32.72z" />
<glyph unicode="&#xe916;" glyph-name="np_approved_4919340_FFFFFF" d="M938.68 490.68c-23.56 0-42.68-19.12-42.68-42.68v-256c0-70.68-57.32-128-128-128h-512c-70.68 0-128 57.32-128 128v512c0 70.68 57.32 128 128 128h341.32c23.56 0 42.68 19.12 42.68 42.68s-19.12 42.64-42.68 42.64h-341.32c-56.56 0-110.838-22.48-150.835-62.48s-62.48-94.28-62.48-150.835v-512c0-56.56 22.48-110.838 62.48-150.835s94.28-62.48 150.835-62.48h512c56.56 0 110.838 22.48 150.835 62.48s62.48 94.28 62.48 150.835v256c0 11.32-4.48 22.16-12.481 30.16s-18.84 12.52-30.16 12.52zM371.2 597.32c-7.8 9-19 14.28-30.88 14.68-11.88 0.36-23.359-4.24-31.72-12.72-8.32-8.44-12.76-20-12.24-31.88 0.56-11.88 6.040-23 15.12-30.64l164.68-161.72c16.6-16.28 43.16-16.28 59.72 0l347.32 341.32c14.64 16.84 13.84 42.080-1.8 57.96-15.679 15.88-40.92 17.040-57.919 2.64l-317.44-311.88z" />
<glyph unicode="&#xe917;" glyph-name="np_approved_3323626_FFFFFF" d="M505.078 435.077c75.96-0.040 146.719 38.64 187.72 102.605 40.96 63.96 46.56 144.404 14.76 213.443-31.76 69-96.52 117.043-171.756 127.478-1.8 0.52-3.64 0.8-5.48 0.84-8.36 1-16.8 1.56-25.24 1.6-79.2-0.64-152.115-43.28-191.519-112.005-39.4-68.72-39.4-153.16 0-221.88 39.4-68.68 112.323-111.319 191.519-112.005zM679.997 658.033c-0.040-42.28-15.4-83.12-43.24-114.964-27.8-31.84-66.241-52.56-108.124-58.28-56.16 7.88-105.042 42.52-131.041 92.92-26.040 50.4-26 110.285 0.12 160.645 26.080 50.36 75 84.92 131.164 92.76 41.84-5.8 80.16-26.48 107.919-58.28s43.12-72.56 43.201-114.801zM659.198 316.948h-280.32c-73.6-1.24-132.68-61.24-132.803-134.881v-85.6c0-13.24-10.72-24.001-24.001-24.001h-48c-13.24 0-24.001 10.76-24.001 24.001v85.6c0.080 48.48 19.36 94.96 53.64 129.239s80.76 53.56 129.239 53.64h326.236c9.080 0 17.4-5.16 21.48-13.32 1.68-3.32 2.56-7 2.52-10.72 0-6.36-2.52-12.481-7.040-16.959-4.48-4.48-10.6-7.040-16.959-7zM866.077 281.908c-139.52-126.72-255.683-257.444-256.799-258.877-4.56-5.12-11.080-8.040-17.92-8h-0.8c-7.16 0.24-13.84 3.64-18.239 9.28l-122.716 158.403c-7.16 9.56-6.2 22.92 2.24 31.36s21.8 9.4 31.36 2.24l108.8-84.32 243.364 186.716c10.2 7.68 24.639 6 32.84-3.8s7.24-24.32-2.12-33z" />
<glyph unicode="&#xe918;" glyph-name="np_water-resistant_4466069_FFFFFF" d="M411.085 693.156c0-67.68-54.88-122.563-122.563-122.563-67.72 0-122.604 54.88-122.604 122.563 0 67.72 122.604 245.156 122.604 245.156s122.563-177.439 122.563-245.156zM1024 80.241h-980.685v-122.604h980.685zM962.72 938.322h-306.442l-0.040-122.563h158.515l-526.244-526.244-201.841 201.8-86.68-86.64 245.156-245.196c11.48-11.48 27.080-17.92 43.36-17.92 16.24 0 31.84 6.44 43.32 17.92l569.559 569.6v-158.484h122.604v306.442c0 16.24-6.44 31.84-17.96 43.36-11.48 11.48-27.080 17.92-43.32 17.92z" />
<glyph unicode="&#xe919;" glyph-name="np_wave_1466047_FFFFFF" d="M1024 256.481c-102.4 30.36-238.92 53.080-356.516 212.398-113.756 155.484-257.884 201.001-345.119 151.716-159.283-83.44-72.040-337.562 75.839-261.683-140.319 34.12-49.32 189.645 26.561 147.917 37.92-18.96 53.080-87.24 30.36-144.118-41.72-109.998-212.398-94.8-231.363-15.16-11.36-22.76-75.839-109.998-155.484-18.96-18.96-49.32-34.12-53.080-68.28-72.040h1024z" />
<glyph unicode="&#xe91a;" glyph-name="np_progress_5119700_FFFFFF" d="M1016.044 550.4c-0.92 5.36-5.64 9.32-11.080 9.32h-74.6c-10.92 47.041-29.36 91.48-54.92 132.362l52.799 52.76c3.88 3.88 4.44 9.96 1.28 14.44-35.32 50.32-78.68 93.68-128.922 128.799-4.48 3.12-10.559 2.6-14.44-1.28l-52.68-52.72c-36.801 23.040-76.64 40.28-118.641 51.48-5.96 1.6-12.16-1.96-13.8-7.96l-35.8-133.724c-0.8-2.88-0.36-5.92 1.12-8.52 1.52-2.6 3.96-4.52 6.84-5.24 122.317-32.64 207.718-143.995 207.718-270.756 0-154.563-125.716-280.238-280.279-280.238-6.2 0-11.28-5.080-11.28-11.28l0.040-220.559c0-6.24 5.080-11.28 11.28-11.28 30.48 0 61.16 2.68 91.080 7.88 5.4 0.96 9.36 5.64 9.36 11.12v74.64c47.041 10.92 91.44 29.32 132.403 54.88l52.72-52.72c3.88-3.88 9.96-4.44 14.44-1.28 50.16 35.12 93.56 78.44 128.922 128.799 3.16 4.48 2.6 10.6-1.28 14.44l-52.84 52.72c25.56 40.92 44 85.4 54.96 132.403h74.6c5.44 0 10.12 3.92 11.080 9.32 5.2 29.92 7.88 60.56 7.88 91.12s-2.68 61.2-7.96 91.080zM244.244 298.281l-171.602-99.080c18.8-30.92 40.96-59.76 66.040-85.92l140.083 140.042c-12.92 13.92-24.52 28.96-34.52 44.96zM339.599 715.756l-99.040 171.602c-30.92-18.84-59.76-41-85.92-66.080l140.042-140.042c13.92 12.92 28.96 24.52 44.92 34.52zM489.4 761.917v198.083c-36.44-0.84-72.48-5.52-107.438-14.080l51.32-191.365c18.32 4.16 37.16 6.64 56.12 7.36zM198.083 448.041h-198.083c0.8-36.44 5.52-72.48 14.040-107.438l191.396 51.32c-4.2 18.32-6.64 37.16-7.36 56.12zM260.045 19.958c31.88-17.48 65.48-31.36 100.12-41.48l51.32 191.396c-18.12 5.56-35.64 12.8-52.36 21.68zM232.919 600.883l-171.602 99.080c-17.48-31.88-31.4-65.48-41.48-100.159l191.396-51.28c5.56 18.12 12.8 35.64 21.68 52.36zM500.644 282.317c97.64 0 177.039 79.4 177.039 176.998 0 6.24-5.040 11.28-11.28 11.28s-11.28-5.040-11.28-11.28c0-85.16-69.28-154.481-154.522-154.481-85.16 0-154.481 69.28-154.481 154.481 0 82.6 65.12 150.241 146.678 154.317l-12.6-29.2c-2.48-5.72 0.16-12.32 5.84-14.8 1.48-0.64 2.96-0.92 4.48-0.92 4.36 0 8.48 2.56 10.36 6.8l19.519 45.119c1.76 4.12 0.92 8.92-2.16 12.2l-37.92 40.36c-4.24 4.56-11.4 4.76-15.92 0.48-4.56-4.24-4.76-11.36-0.48-15.92l20.799-22.12c-90.2-8.040-161.157-84-161.157-176.323 0.080-97.64 79.48-176.998 177.080-176.998z" />
<glyph unicode="&#xe91b;" glyph-name="np_rnd-phase_4110502_FFFFFF" d="M259.604 477.921c17.92 35.36 12.44 78.080-13.84 107.796-18.48 21.12-45.28 33.040-73.32 32.56-4.68-0.080-8.92-2.72-11.040-6.88-2.16-4.12-1.84-9.12 0.8-12.96l39.52-59.199c1.84-2.68 2.52-6 1.88-9.2s-2.52-6-5.24-7.8l-33.080-22.12c-3-2.080-6.76-2.72-10.24-1.72-3.36 0.8-6.24 3-7.88 6.040l-35.84 64.6c-2.16 4.080-6.44 6.64-11.080 6.64-4.64 0.040-8.92-2.48-11.16-6.56-18.32-32.56-16.16-72.8 5.52-103.24 21.68-30.48 58.96-45.68 95.76-39.080l196.403-227c8.72-9.92 21.32-15.6 34.52-15.6h1.72c17.76 0.76 33.48 11.6 40.44 27.92s3.88 35.2-7.88 48.48zM407.163 231.117c0.24 3.72 2 7.16 4.8 9.64 2.56 2.24 5.8 3.48 9.2 3.48h0.92c3.72-0.24 7.16-1.96 9.64-4.72 3.8-4.24 4.64-10.36 2.16-15.48-2.52-5.12-7.84-8.24-13.52-7.88-3.72 0.28-7.2 1.96-9.72 4.72-2.48 2.84-3.72 6.48-3.48 10.24zM942.080 333.722l-17.12 18.72v0.040c0.44 8.84-0.2 17.68-1.84 26.4l14.12 19.24h0.040c2.76 3.88 3.16 8.96 1.12 13.24l-5.84 11.56c-2.16 4.28-6.48 7-11.28 7.040h-23.12c-6.040 7-12.92 13.16-20.48 18.44l-4.8 23.84-0.040 0.040c-0.88 4.48-4.12 8.2-8.48 9.6l-12.2 4.080v0.040c-4.36 1.44-9.16 0.4-12.6-2.68l-17.8-15.96c-9.6 0.52-19.2-0.24-28.56-2.24l-18.56 13.6c-3.84 2.76-8.92 3.2-13.2 1.12l-11.48-5.72c-4.28-2.16-7.040-6.56-7.16-11.36v-22.76c-7-6.2-13.16-13.36-18.32-21.2l-23.96-4.8c-4.52-0.88-8.2-4.12-9.64-8.48l-4.080-12.2c-1.44-4.36-0.4-9.16 2.64-12.6l17.12-18.84c-0.32-8.96 0.52-17.88 2.44-26.64l-14.72-18.92c-2.88-3.92-3.36-9.080-1.24-13.44l5.84-11.48v0.040c2.12-4.36 6.52-7.080 11.36-7.080h24.48c5.72-6.32 12.2-11.92 19.24-16.68l4.92-25.8c0.68-4.76 3.96-8.72 8.52-10.24l12.2-4h-0.040c1.28-0.48 2.64-0.72 4-0.72 3.24 0.040 6.32 1.24 8.72 3.36l19.68 18.040h-0.040c8.2-0.24 16.4 0.44 24.48 1.96l20.48-15.041v-0.040c3.88-2.88 9.080-3.32 13.4-1.12l11.48 5.72v0.040c4.36 2.12 7.080 6.6 6.96 11.44v25.32c6.2 5.64 11.72 11.96 16.48 18.84l25.72 4.92v-0.040c4.76 0.68 8.72 4 10.24 8.52l4.080 12.2c1.36 4.48 0.16 9.36-3.16 12.68zM845.119 348.482c-2.68-7.84-8.28-14.32-15.679-18.040-7.36-3.72-15.92-4.32-23.76-1.64-7.8 2.56-14.24 8.12-17.92 15.48-3.8 7.32-4.44 15.88-1.84 23.72s8.24 14.32 15.679 17.96c4.28 2.2 9.080 3.36 13.92 3.36 3.48 0.080 6.96-0.48 10.24-1.64 7.84-2.56 14.36-8.16 18-15.56 3.56-7.4 4-15.92 1.24-23.64zM685.036 275.436l-15.56 7.16v0.040c-1.84 3.6-4.040 7.040-6.56 10.24l0.52 17.601c0.12 4.8-2.44 9.28-6.64 11.56l-5.76 3.080c-4.2 2.24-9.32 2.040-13.28-0.6l-14.96-10.24h-9.12l-14.84 10.24c-4.2 3.12-9.88 3.36-14.36 0.6l-5.72-3.080c-4.16-2.32-6.72-6.76-6.64-11.56l0.52-17.72c-3.96-4.6-7.16-9.84-9.44-15.48l-14.24-7.88c-4.080-2.44-6.52-7-6.24-11.76v-6.56c0.2-4.84 3.12-9.16 7.56-11.16l13.32-5.92c2.24-5.24 5.2-10.080 8.8-14.44l-0.6-14.24c-0.2-4.88 2.36-9.44 6.64-11.8l5.72-3.16h0.040c1.92-1 4.080-1.52 6.24-1.52 2.6-0.040 5.12 0.76 7.28 2.24l10.84 7.48c2.96-0.56 6-0.88 9-0.92h0.92c2.64 0.16 5.28 0.44 7.92 0.92l10.96-7.56-0.040-0.040c2.16-1.48 4.68-2.28 7.28-2.24 2.16 0 4.24 0.56 6.16 1.52l5.84 3.16v0.040c4.2 2.36 6.72 6.84 6.56 11.68v14.24c4.6 5.68 8.080 12.2 10.24 19.24l12.68 7.56c4.2 2.36 6.68 6.88 6.44 11.68v6.56c-0.16 4.8-3.080 9.12-7.48 11.040zM617.676 239.396c-9.24 0-16.68 7.48-16.68 16.72 0 9.2 7.44 16.68 16.68 16.68 4.48 0.12 8.84-1.52 12.040-4.64 3.24-3.080 5.12-7.36 5.16-11.839 0.12-4.44-1.6-8.72-4.72-11.88-3.080-3.16-7.28-4.96-11.68-5.040zM249.641 291.441l-10.24 5.72c-1 2.28-2.2 4.48-3.56 6.56l1.24 12.2h-0.040c0.48 4.8-1.76 9.44-5.84 12.080l-4.2 2.68 0.040-0.040c-4.080 2.56-9.28 2.56-13.32 0l-11.48-6.56h-5.12l-10.24 8.080v0.040c-3.8 2.84-8.84 3.44-13.2 1.52l-4.6-2.16c-4.4-1.96-7.28-6.24-7.4-11.040l-0.52-12.4c-2.8-3.080-5.16-6.52-7.040-10.24l-10.24-4.92c-4.36-2.040-7.2-6.44-7.28-11.24v-4.92c-0.2-4.88 2.44-9.44 6.76-11.68l8.6-4.6c1.36-3.64 3.16-7.080 5.32-10.24l-1.040-9.64h0.040c-0.52-4.8 1.72-9.48 5.8-12.080l4.2-2.76c2.080-1.32 4.52-2.040 7-2.040 2.28-0.040 4.48 0.6 6.44 1.84l7.68 4.52v-0.040c2.2-0.48 4.48-0.84 6.76-1h2.56c0.88-0.080 1.76-0.080 2.64 0l6.96-5.64c2.28-1.8 5.12-2.8 8-2.76 1.84 0 3.68 0.4 5.32 1.24l4.6 2.040c4.44 2.040 7.28 6.4 7.4 11.24v9.64c3.52 3.84 6.36 8.28 8.4 13.119l9.32 4.4c4.28 2.12 7.040 6.44 7.16 11.24v5.040c0.56 5.28-2.16 10.32-6.88 12.8zM195.561 267.88h0.040c-2.6 0.12-5 1.28-6.72 3.2s-2.56 4.48-2.4 7.040c0.080 2.56 1.24 4.96 3.16 6.64 1.8 1.56 4.080 2.44 6.44 2.48h0.52c2.56-0.2 4.92-1.32 6.68-3.2 1.64-1.92 2.52-4.4 2.32-6.96-0.040-2.56-1.12-5-3.040-6.72-1.88-1.76-4.4-2.64-6.96-2.48zM642.161 569.436c2.24-2.44 5.36-3.92 8.68-4.080l80.8-4.6c4.96 0 9.44 2.88 11.56 7.36l39.12 81.92c0.4 0.92 0.72 1.88 0.92 2.88-0.040 0.4-0.040 0.8 0 1.2 0.080 0.76 0.080 1.52 0 2.28 0.080 0.44 0.080 0.88 0 1.32-0.16 0.72-0.4 1.44-0.68 2.16v1.64l-1.44 1.84-55.2 57.76c-2.2 2.28-5.16 3.64-8.32 3.88l-79.36 5.72h-4.6c-0.88-0.2-1.68-0.52-2.44-1h-0.92l-1.96-1.64c-0.28-0.2-0.52-0.44-0.72-0.72-0.8-0.84-1.44-1.76-1.92-2.76l-40.36-82.040c-2.24-4.76-1.36-10.4 2.24-14.24zM709.761 701.235l29.28-30.72-42.72 2.76-28.76 30.72zM518.963 309.156l168.243 126.044c2.96 2.28 4.84 5.68 5.12 9.44 0.32 3.8-1.040 7.56-3.8 10.24l-260.198 257.198-1.76 1.24-1.76 1.040-1.96 0.52 0.080-0.040c-0.68 0.12-1.36 0.12-2.040 0h-3.92l-2.040-0.8h-1.72l-1.64-1.32-1.32-1.44h-0.040c-0.44-0.52-0.84-1.12-1.12-1.76-0.32-0.6-0.64-1.2-0.92-1.84v-0.72l-73.44-250.88h0.040c-2.040-3.32-2.44-7.36-1.12-11s4.24-6.48 7.88-7.76c3.68-1.24 7.72-0.76 11 1.32 3.28 2.040 5.44 5.52 5.88 9.36l59.92 204.8 76.36-318.679-42.72 5.52 0.040 0.040c-3.36 0.44-6.76-0.44-9.44-2.52-2.72-2.040-4.48-5.080-4.92-8.44-0.6-6.72 4.12-12.8 10.76-13.84l61.44-8h1.64c1.64 0.040 3.24 0.4 4.72 1.040l1.32 0.72z" />
<glyph unicode="&#xe91c;" glyph-name="np_build_5444046_FFFFFF" d="M419.84 407.040h-266.24c-28.24 0-51.2-22.96-51.2-51.2v-266.24c0-28.24 22.96-51.2 51.2-51.2h266.24c28.24 0 51.2 22.96 51.2 51.2v266.24c0 28.24-22.96 51.2-51.2 51.2zM604.16 38.4h266.24c28.24 0 51.2 22.96 51.2 51.2v266.24c0 28.24-22.96 51.2-51.2 51.2h-266.24c-28.24 0-51.2-22.96-51.2-51.2v-266.24c0-28.24 22.96-51.2 51.2-51.2zM471.040 806.4c0 28.24-22.96 51.2-51.2 51.2h-266.24c-28.24 0-51.2-22.96-51.2-51.2v-266.24c0-28.24 22.96-51.2 51.2-51.2h266.24c28.24 0 51.2 22.96 51.2 51.2zM1003.52 622.080v266.24c0 28.24-22.96 51.2-51.2 51.2h-266.24c-28.24 0-51.2-22.96-51.2-51.2v-266.24c0-28.24 22.96-51.2 51.2-51.2h266.24c28.24 0 51.2 22.96 51.2 51.2z" />
<glyph unicode="&#xe91d;" glyph-name="np_fishes_974974_FFFFFF" d="M570.358 665.876c0-2.080 0-6.4-17.16-20.24-14-11.28-47.76-34.080-91.24-34.080-8.56 0-17.4 0.92-26.64 2.88-5.4 1.24-49.52 11.68-74.8 42.12-9.44-10.88-27.36-27.88-48.28-31.12l-9.2-1.4-0.32 9.36c-0.32 10.44 3.64 22.16 6.64 30.68 0.76 2.24 1.64 4.96 2 6.4-0.32 1.080-0.92 2.64-1.56 4.48-3 8.12-7.48 20.4-7.040 31.44l0.24 8.96 8.96-1c20.32-2.24 39.4-20.080 48.6-30.12l0.76 1.080 0.6-1c14.52 10.44 48.52 32.52 81.12 37.56 52.32 8.040 90-16.36 107.837-31.6 3.12-2.76 19.48-17.12 19.48-24.4zM294.554 807.997c-15.44 13.2-48.040 34.32-93.36 27.36-28.24-4.4-57.68-23.48-70.24-32.56l-0.52 0.88-0.64-0.92c-7.96 8.68-24.48 24.12-42.080 26.080l-7.76 0.88-0.2-7.76c-0.36-9.56 3.52-20.2 6.12-27.199 0.56-1.56 1.080-2.96 1.36-3.88-0.28-1.2-1.080-3.6-1.72-5.52-2.6-7.4-6.040-17.52-5.76-26.561l0.28-8.12 7.96 1.2c18.12 2.8 33.599 17.52 41.8 26.92 21.92-26.36 60.12-35.4 64.8-36.48 7.96-1.72 15.64-2.52 23.080-2.52 37.64 0 66.879 19.76 79 29.52 14.88 12 14.88 15.72 14.88 17.52-0.040 6.28-14.2 18.72-17 21.16zM326.474 545.761c-19.48 16.68-60.6 43.28-117.76 34.52-35.6-5.52-72.72-29.64-88.6-41.040l-0.64 1.080-0.8-1.16c-10.040 10.96-30.88 30.44-53.080 32.88l-9.8 1.080-0.28-9.76c-0.44-12.040 4.44-25.44 7.72-34.32 0.72-2 1.36-3.72 1.72-4.88-0.36-1.52-1.36-4.52-2.16-6.96-3.28-9.32-7.6-22.079-7.24-33.52l0.36-10.24 10.040 1.52c22.84 3.52 42.4 22.079 52.72 33.96 27.64-33.24 75.8-44.64 81.72-46 10.040-2.16 19.76-3.16 29.080-3.16 47.48 0 84.32 24.92 99.64 37.24 18.76 15.12 18.76 19.84 18.76 22.079-0.040 7.92-17.88 23.6-21.4 26.68zM797.831 329.083c-40.72-17.96-100.2-36.28-110.438-36.28-3 0-3.76 1.040-4.12 1.64-4.52 6.96 0.36 28 6.52 45.24-16.92 4.4-32.8 9.8-47.4 15.88-18.84-4.28-64.88-7.84-73.24 11.16-2.68 6.080 7.6 15.6 13.44 20.28-12.36 7.96-22.84 15.64-31.48 22.52-14.96-16.52-50.64-51.2-95.76-61.52 1.56 20.161 9.76 42.72 15.48 58.52 4.16 11.4 5.72 18.68 5.72 23.44 0 5.88-1.56 10.12-5.72 21.441-5.72 15.76-14 38.56-15.56 58.72 44.96-10.64 80.8-47.4 95.72-64.84 31.48 19.8 91.56 53.32 158.116 68.52-0.24 9.040 1.96 25.16 15.72 44.68 19.48-2.24 42.76-20.44 60.12-37.28 4.64-0.4 9.24-0.84 13.761-0.84 46.24-3.16 86.92-20.84 117.965-39.56 31.039-18.76 52.44-38.48 60.16-45.68-4.72-5.4-7.12-10.28-7.12-14.48 0-4.4 2.44-9 7.44-13.68-16.36-20.799-67.4-71.84-179.323-77.88zM874.392 367.043c-38.28 36.96-28.36 71.16-13.28 93.32 1.24 1.84 2.16 3.080 2.16 5.16 0 3.48-2.84 6.28-6.28 6.28-2.52 0-4.72-1.44-5.72-3.6l-0.52-0.8c-25.2-36.96-19.84-75.839 14.92-109.476 1.24-1.12 2.84-1.76 4.4-1.76 1.64 0 3.28 0.68 4.52 1.96 2.36 2.52 2.32 6.52-0.2 8.92zM925.272 432.123c0 8.16-6.64 14.8-14.8 14.8-8.2 0-14.84-6.64-14.84-14.8 0-8.2 6.64-14.84 14.84-14.84 8.16 0 14.8 6.64 14.8 14.84zM385.87 53.407c-37.080-16.36-91.199-33.040-100.56-33.040-2.72 0-3.44 0.96-3.76 1.52-4.12 6.32 0.32 25.48 5.92 41.2-15.4 4-29.84 8.92-43.16 14.44-17.16-3.92-59.040-7.16-66.68 10.16-2.44 5.52 6.92 14.2 12.24 18.48-11.24 7.24-20.799 14.24-28.68 20.52-13.6-15.041-46.12-46.64-87.2-56.001 1.44 18.36 8.88 38.92 14.12 53.28 3.8 10.36 5.24 17 5.24 21.36 0 5.36-1.44 9.2-5.24 19.519-5.24 14.36-12.72 35.12-14.16 53.48 40.92-9.68 73.56-43.16 87.16-59.040 28.68 18.040 83.36 48.56 143.964 62.401-0.2 8.24 1.76 22.92 14.32 40.68 17.72-2.040 38.96-18.6 54.76-33.92 4.24-0.36 8.4-0.76 12.56-0.76 42.080-2.88 79.12-19 107.397-36 28.28-17.080 47.76-35.040 54.76-41.56-4.32-4.92-6.48-9.36-6.48-13.2 0-4 2.24-8.2 6.76-12.44-14.88-19.12-61.36-65.56-163.277-71.080zM455.55 87.967c-34.879 33.64-25.8 64.8-12.12 85 1.16 1.64 1.96 2.8 1.96 4.72 0 3.16-2.6 5.72-5.72 5.72-2.28 0-4.32-1.32-5.24-3.28l-0.48-0.76c-22.92-33.64-18.080-69.040 13.6-99.68 1.16-1.040 2.6-1.6 4-1.6 1.48 0 2.96 0.64 4.12 1.8 2.24 2.28 2.2 5.88-0.12 8.080zM502.75 144.047c0 6.6-5.4 12-12 12-6.64 0-12.040-5.4-12.040-12 0-6.64 5.4-12.040 12.040-12.040 6.6 0.040 12 5.44 12 12.040z" />
<glyph unicode="&#xe91e;" glyph-name="np_power-plus_3365693_FFFFFF" d="M451.84 501.842c-3.040 1.92-4.44 5.68-3.36 9.12l85.36 273.039-342.804-274.156 231.997-124.641c3.52-1.88 5.12-6.040 3.76-9.76l-93.121-261.12 313.836 262.963zM792.801 619.039v38.56c0 4.4 3.6 8 8 8h38.56v77.2h-38.56c-4.4 0-8 3.6-8 8v38.56h-77.119v-38.56c0-2.12-0.84-4.16-2.36-5.64-1.48-1.52-3.52-2.36-5.64-2.36h-38.64v-77.2h38.64c2.12 0 4.16-0.84 5.64-2.36 1.52-1.48 2.36-3.52 2.36-5.64v-38.56z" />
<glyph unicode="&#xe91f;" glyph-name="np_handwork_4282078_FFFFFF" d="M598.641 534.323c15.041-20.48 9.52-51.2 5.44-71.68h-0.040c39.24-2.080 78.080-8.64 115.835-19.56l21.52 140.595c81.4 10.84 146.842 64.6 158.003 137.718 8.72 56.639-17.12 111.841-63.8 149.996l-15.56-102.4-118.999-24.040-106.199 58.88 16.080 104.96c-58.68-21.72-102.4-67.8-111.319-126.239-11.16-73.12 35.24-143.995 109.681-178.719zM582.636-12.001c3.4-0.52 6.84-0.76 10.24-0.8 32.040 0.080 59.44 22.92 65.36 54.36-42.4-6.32-85.16-9.96-128-10.96 8.44-22.64 28.479-38.96 52.4-42.6zM525.722 45.875c69 0 171.837 15.56 192.717 23.16 37.16 13.32 88.080 69 16.48 96.16 0 0 58.68 27.12 7.16 89.080 28.040 29.8 29.68 59.48-11.48 89.080 0 0 36.24 9.12 36.24 44.56 0.040 48.8-160.236 60.080-178.442 60.080h-1.040c-7.48 0 30.72 87.64-26 87.64-47.32-4.080-72.4-33.080-106.281-84.6-26.4-40.16-105.165-71.68-138.639-83.56l-0.040-283.72c36.040-8.8 126.761-30.72 176.517-36.24h0.040c10.88-1.2 21.8-1.72 32.76-1.64zM301.036 87.562v318.956h-178.156v-348.959h178.156z" />
<glyph unicode="&#xe920;" glyph-name="np_hand-of-mechanic_2421269_FFFFFF" d="M491.878 219.638v0.040c-1.36-0.32-2.64-0.64-4-0.96-2.76-0.64-5.32-1.24-7.76-1.84-0.8-0.2-1.68-0.4-2.48-0.6-24.040-5.96-33.2-9.4-42.8-10.24-1.12 0-2.32-0.080-3.4-0.080-2.88 0-5.72 0.2-8.4 0.4 0.12-0.080 0.32-0.12 0.44-0.2-2.2 0.2-4.52 0.44-7.2 0.8 12.24-10.48 41.76-17.96 69.24-10.64 0 0 12.481 8.4 10.040 24.16-1.32-0.28-2.44-0.56-3.68-0.84zM640.758 237.476s10.040 0.2 17.2 9c-12.28-3.080-24.36-5.72-36.24-8 5.72-1.8 12.28-2.64 19.040-1zM585.359 232.919c-14.16-1.92-26.12-3.12-34.12-3.84-2.4-0.040-5.32-0.48-7.92-0.68-9-0.6-19.16-2-29.96-4 0.040-0.040 0.12-0.080 0.16-0.12-0.56-0.12-1.040-0.16-1.6-0.28 12.481-12.481 37.080-31.76 61.44-23.76 0 0 31.52 6.36 29.080 35.24-2.2-0.36-4.24-0.64-6.36-0.96-3.64-0.56-7.28-1.12-10.72-1.6zM686.838 254.679v-0.16c-2.12-0.68-4.2-1.44-6.36-2.12 5.72-4.32 12.68-7.8 21.080-7.56 0 0 28.88-4.080 35.64 32.16-2.12-1.36-4.48-2.6-6.72-3.88-12.6-7.080-27.6-13.36-43.64-18.44zM519.404 256.563c10.36 1.68 20.36 2.84 29 3.040 0 0 152.801 13.92 185.764 54.68 8.6 10.64 38.719 48.321 47.92 61.64 12.92 18.84 30.12 34.6 50.4 45.48 17.601 9.2 38.92 23.16 54.88 40.76 26.2 29.080 59.199 51 94.84 67.16 6.96 3.080 14.12 6.16 21.28 8.8l-222.198 164.444s-55.72-105.083-215.245-151.562c0 0-125.317-60-160.758-114.278 0 0-13.52-20.48-26.2-45.040h102s64.92 48.24 90.52 54.88c23.16 6 94.76-3.52 91.76-27.24-2.6-20.48-62.16 0.32-82.52-3.080-20.32-3.4-70.44-42.8-70.44-42.8s-1.44-30.32-66.76-39.52c0 0-76.2-16.4-55.52-70.88 0 0 8-29.28 48.959-26.2-0.080 0.040 43.72 13.52 82.32 19.72zM445.006 249.566c-33.8-10.84-56.72 30.12-41.76 48.959 4.92 6.36 26.84 15.36 28.88 6.76 3.080-12.92 8-21.72 28.88-45.040 1.4-1.44-9.88-8.6-16-10.68zM182.723 361.001c-21.68 36.84-68.12 53.2-109.036 36.28-29.759-12.44-49.12-39.88-53.2-69.64l63.6 26.6c7.52 2.88 15.88-0.56 19.080-8.080l21.96-53.2c3.16-7.52-0.28-15.88-7.8-19.080l-63.56-26.32c30.64-23.68 76.32-26.32 111.278 3.16 8.44 7.12 15.24 16.040 20.32 25.88h168.684c-1.040 15.96 3.48 28.68 8.2 37.48 15.16 28.28 47.32 41.56 64.319 46.88zM98.040 274.964l5.24 39.92-31.96 24.52-37.2-15.4-5.24-39.92 31.96-24.52zM45.4 299.484c0 11.4 9.24 20.68 20.68 20.68 11.4 0 20.68-9.24 20.68-20.68 0-11.4-9.24-20.64-20.68-20.64-11.4 0-20.68 9.24-20.68 20.64z" />
<glyph unicode="&#xe921;" glyph-name="np_simple_3094259_FFFFFF" d="M708.598 442.88h-395.244c-5.12 0-10.24 3.080-13.32 8.2s-3.080 10.24 0 15.36l197.642 341.996c3.080 5.12 8.2 7.16 13.32 7.16s10.24-3.080 13.32-7.16l197.642-341.996c3.080-5.12 3.080-10.24 0-15.36-3.12-5.12-8.24-8.2-13.36-8.2zM339.958 473.6h341.996l-170.998 295.916zM838.636 80.404h-308.204c-8.2 0-15.36 7.16-15.36 15.36v308.204c0 8.2 7.16 15.36 15.36 15.36h308.244c8.2 0 15.36-7.16 15.36-15.36v-308.244c-0.040-8.16-7.2-15.32-15.4-15.32zM545.792 111.124h277.524l-0.040 277.484h-277.484zM313.364 81.398c-93.2 0-168.96 75.76-168.96 168.96s75.76 168.96 168.96 168.96c93.2 0 168.96-75.76 168.96-168.96 0-93.16-75.8-168.96-168.96-168.96zM313.364 388.598c-75.76 0-138.24-62.48-138.24-138.24s62.48-138.24 138.24-138.24c75.76 0 138.24 62.48 138.24 138.24 0 75.8-62.48 138.24-138.24 138.24z" />
<glyph unicode="&#xe922;" glyph-name="np_affordability_3451798_FFFFFF" d="M416 703.959c-35.16 0-64 28.84-64 64s34.080 64.2 69.24 64.16l170.762-0.16c21.64 0.32 21.64-32.28 0-32h-176.036c-17.84 0-32-14.12-32-32 0-17.84 14.12-32 32-32 86.44 0 137.882-21.6 182.764-35.36 23.6-7.24 47.041-12.481 78.24-12.481 35.68 0 59.88 13.8 85.6 29.6 25.68 15.8 48.080 34.56 85.4 34.44 8.84 0 16 7.16 16 16v127.959c0 8.8-7.2 16-16 16l-32.44-0.16c-78.36-0.4-119.603 11.44-159.283 23.32-39.68 11.92-78.56 24.639-144.517 24.639-51.48 0-120.238-16.8-171.397-68.72l-198.359-201.318c-0.16-0.16-0.24-0.24-0.32-0.36-7.080-7.6-13.32-19.24-13.64-33.16v-0.36c0-26.28 21.72-48.080 48-48.080 32 0 109.036 0.4 128 0 13.16 0 23.359 7.36 32 16 30.76 32.56 61.32 61.28 80 80zM496.005 608c-88.2 0-160-71.8-160-160s71.8-160 160-160 160 71.8 160 160-71.8 160-160 160zM503.765 560.040c9.040 0.16 16.4-7.2 16.24-16.24v-15.76h15.76c21.6 0.28 21.6-32.28 0-32h-47.679c-8.88 0-15.8-6.92-15.8-16s6.92-16 15.8-16h15.88c26.28 0 47.8-21.72 47.8-48 0-26.24-21.48-48-47.76-48v-15.8c0.24-21.56-32.24-21.56-32 0v15.8h-15.76c-21.6-0.28-21.6 32.28 0 32h47.679c8.88 0 15.8 6.92 15.8 16s-6.92 16-15.8 16h-15.88c-26.28 0-47.8 21.72-47.8 48 0 26.24 21.52 48 47.76 48v15.76c-0.16 8.84 6.92 16.080 15.76 16.24zM576 192c35.16 0 64-28.84 64-64s-34.080-64.2-69.24-64.16l-170.762 0.16c-21.64-0.32-21.64 32.28 0 32h176.036c17.84 0 32 14.12 32 32 0 17.84-14.12 32-32 32-86.44 0-137.882 21.6-182.764 35.36-23.6 7.24-47.041 12.481-78.24 12.481-35.68 0-59.88-13.8-85.6-29.6-25.68-15.8-48.080-34.56-85.4-34.44-8.84 0-16-7.16-16-16v-127.959c0-8.8 7.2-16 16-16l32.44 0.16c78.36 0.4 119.603-11.44 159.283-23.32 39.68-11.92 78.56-24.639 144.517-24.639 51.48 0 120.238 16.8 171.397 68.72l198.359 201.318c0.16 0.16 0.24 0.24 0.32 0.36 7.080 7.6 13.32 19.24 13.64 33.16v0.36c0 26.28-21.72 48.080-48 48.080-32 0-109.036-0.4-128 0-13.16 0-23.359-7.36-32-16-30.76-32.56-61.32-61.28-80-80z" />
</font>
</defs>
</svg>
